Renegades 2017 1080p WEB-DL DD 5.1 x264

seeders: 152     leechers: 124     updated: 3 weeks ago
Uploaded by MovieFreak4321 , was 1 month ago, day 07/01/2018 13:20:20
Downloaded 70 times, 1.65 GB - 1 file , filmes > WebDL


Warning! Use a VPN When Downloading Torrents.


Your IP Address is 5.8.45.239 Location is CL.
Hide your IP ADDRESS with a VPN!

Get VPN App Mac Now!


    Renegades 2017 1080p WEB-DL DD 5.1 x264 ( 1.65 GB )
    Renegades 2017 1080p WEB-DL DD 5.1 x264.mkv1.65 GB

    By the way you can play this film on Mac with Elmedia Player





    General
    Format                      : Matroska
    Format version              : Version 4 / Version 2
    File size                   : 1.65 GiB
    Duration                    : 1 h 45 min
    Overall bit rate            : 2 239 kb/s

    Video
    ID                          : 1
    Format                      : AVC
    Format/Info                 : Advanced Video Codec
    Format profile              : [email protected]
    Format settings             : CABAC / 4 Ref Frames
    Format settings, CABAC      : Yes
    Format settings, ReFrames   : 4 frames
    Codec ID                    : V_MPEG4/ISO/AVC
    Duration                    : 1 h 45 min
    Bit rate                    : 2 000 kb/s
    Width                       : 1 916 pixels
    Height                      : 800 pixels
    Display aspect ratio        : 2.40:1
    Frame rate mode             : Constant
    Frame rate                  : 23.976 (24000/1001) FPS
    Color space                 : YUV
    Chroma subsampling          : 4:2:0
    Bit depth                   : 8 bits
    Scan type                   : Progressive
    Bits/(Pixel*Frame)          : 0.054
    Stream size                 : 1.46 GiB (88%)
    Default                     : Yes
    Forced                      : No

    Audio
    ID                          : 2
    Format                      : AC-3
    Format/Info                 : Audio Coding 3
    Codec ID                    : A_AC3
    Duration                    : 1 h 45 min
    Bit rate mode               : Constant
    Bit rate                    : 256 kb/s
    Channel(s)                  : 6 channels
    Channel positions           : Front: L C R, Side: L R, LFE
    Sampling rate               : 48.0 kHz
    Frame rate                  : 31.250 FPS (1536 SPF)
    Bit depth                   : 16 bits
    Compression mode            : Lossy
    Stream size                 : 193 MiB (11%)
    Language                    : English
    Service kind                : Complete Main
    Default                     : Yes
    Forced                      : No






    http://pichub.site/image/SsRp
    http://pichub.site/image/SX94
    http://pichub.site/image/S3Ky
    http://pichub.site/image/SZPb
    http://pichub.site/image/S9J0




    SIMILAR

    TORRENT   UPLOADEDSIZESEEDS LEECHS
    Renegades.2017.BDRip.XviD.AC3-EVO by Supernova 1 week 1.40 GB17 6
    Renegades.2017.BDRip.XviD.AC3-EVO[EtMovies] by EtHD 1 week 1.40 GB109 19
    Renegades.2017.BDRip.XviD.AC3-EVO by makintos13 1 week 1.40 GB31 10
    Renegades 2017.HDRip.XviD.AC3-EVO[EtMovies] by EtHD 1 month 1.45 GB62 24
    Renegades.2017.720p.WEB-DL.AAC.LLG by LifeLongg 1 month 734.67 MB12 8
    Renegades 2017.720p.WEB-DL.X264.AC3-EVO[EtHD] by EtHD 1 month 2.52 GB285 166
    Renegades 2017.HDRip.XviD.AC3-EVO by xxxlavalxxx 1 month 1.45 GB1 549 651

    Torrent Hash: BAC77B77B0741844B126FF3308A71EC5DAB9E3FB


    Num Trackers: 6 trackers




    TRACKER'S LIST COMPATIBLE WITH BITTORRENT CLIENT


    TrackerSeedersLeechersCompletedUpdated
    udp://tracker.coppersurfer.tk:6969/announce 152 124 0 1 month
    udp://tracker.leechers-paradise.org:6969/announce 88 136 0 1 month
    udp://tracker.zer0day.to:1337/announce 84 139 0 1 month
    http://opentrackr.org/announce 82 93 0 1 month
    udp://tracker.mg64.net:6969/announce 21 45 0 1 month
    http://tracker1.itzmx.com:8080/announce 1 0 0 1 month

    No comments yet.