Paddington 2 2017 720p HDTS x264 AC3 TiTAN

seeders: 336     leechers: 86     updated: 2 hours ago
Uploaded by makintos1340690 , was 4 days ago, day 11/01/2018 05:34:02
Downloaded 54 times, 2.27 GB - 1 file , filmes > TS


Warning! Use a VPN When Downloading Torrents.


Your IP Address is 2001:9b0:10:2104:216:3eff:fec6:7a7e Location is SE.
Hide your IP ADDRESS with a VPN!

Get VPN App Mac Now!


    Paddington 2 2017 720p HDTS x264 AC3 TiTAN ( 2.27 GB )
    Paddington 2 2017 720p HDTS x264 AC3 TiTAN.mkv2.27 GB

    By the way you can play this film on Mac with Elmedia Player

    screens:
    http://imgmak.com/mc0
    http://imgmak.com/mcA
    http://imgmak.com/mcD
    http://imgmak.com/mcf
    http://imgmak.com/mcE
    http://imgmak.com/mch
    http://www.imdb.com/title/tt4468740/

    source: 1080p a friend :bow:

    General

    Format                  : Matroska
    Format version              : Version 2
    File size                : 2.27 GiB
    Duration                 : 1h 36mn
    Overall bit rate mode          : Variable
    Overall bit rate             : 3 380 Kbps

    Video
    ID                    : 1
    Format                  : AVC
    Format/Info               : Advanced Video Codec
    Format profile              : [email protected]
    Format settings, CABAC          : Yes
    Format settings, ReFrames        : 3 frames
    Codec ID                 : V_MPEG4/ISO/AVC
    Duration                 : 1h 36mn
    Bit rate mode              : Variable
    Bit rate                 : 3 250 Kbps
    Maximum bit rate             : 40.0 Mbps
    Width                  : 1 280 pixels
    Height                  : 480 pixels
    Display aspect ratio           : 2.667
    Frame rate mode             : Constant
    Frame rate                : 30.000 fps
    Color space               : YUV
    Chroma subsampling            : 4:2:0
    Bit depth                : 8 bits
    Scan type                : Progressive
    Bits/(Pixel*Frame)            : 0.176
    Stream size               : 2.14 GiB (94%)
    Default                 : Yes
    Forced                  : No
    Color primaries             : BT.709
    Transfer characteristics         : BT.709
    Matrix coefficients           : BT.709

    Audio
    ID                    : 2
    Format                  : MPEG Audio
    Format version              : Version 1
    Format profile              : Layer 3
    Mode                   : Joint stereo
    Mode extension              : MS Stereo
    Codec ID                 : A_MPEG/L3
    Codec ID/Hint              : MP3
    Duration                 : 1h 36mn
    Bit rate mode              : Constant
    Bit rate                 : 128 Kbps
    Channel(s)                : 2 channels
    Sampling rate              : 44.1 KHz
    Compression mode             : Lossy
    Delay relative to video         : 1s 350ms
    Stream size               : 88.2 MiB (4%)
    Default                 : Yes
    Forced                  : No



    SIMILAR

    TORRENT   UPLOADEDSIZESEEDS LEECHS
    Paddington.2.2017.TS.x264-EZIS[EtMovies] by EtHD 3 weeks 1.31 GB12 3
    Paddington (2014) 720p BrRip x264 - YIFY by YIFY 3 years 751.94 MB6 2
    Paddington (2014) 1080p BrRip x264 - YIFY by YIFY 3 years 1.44 GB4 1
    Paddington.2.2017.TS.XViD-26k[EtMovies] by EtHD 3 weeks 1.43 GB18 6
    Paddington.2.2017.TS.XViD-26k by makintos13 3 weeks 1.43 GB247 70
    Paddington 2 2017 720p HDTS x264 AC3 TiTAN[EtMovies] by EtHD 3 weeks 2.27 GB27 5
    Paddington 2 2017 Movies HD TS x264 Clean Audio New +Sample ☻rDX by basicssom 3 weeks 705.23 MB67 26

    Torrent Hash: 8CAD66BCF3AB991BEA61F8E72231BBBA92E5CBEE


    Num Trackers: 15 trackers




    TRACKER'S LIST COMPATIBLE WITH BITTORRENT CLIENT


    TrackerSeedersLeechersCompletedUpdated
    udp://tracker.leechers-paradise.org:6969/announce 336 86 0 5 hours
    udp://tracker.coppersurfer.tk:6969/announce 336 82 0 5 hours
    http://tracker.opentrackr.org:1337/announce 175 49 0 5 hours
    udp://tracker.zer0day.to:1337/announce 124 26 0 5 hours
    http://mgtracker.org:6881/announce 43 17 0 5 hours
    udp://eddie4.nl:6969 13 82 0 4 days
    udp://tracker.coppersurfer.tk:6969 8 24 0 4 days
    udp://tracker.leechers-paradise.org:6969 6 23 0 4 days
    udp://tracker.zer0day.to:1337 4 23 0 4 days
    udp://mgtracker.org:6969 4 23 0 4 days
    udp://9.rarbg.to:2710 4 11 0 4 days
    udp://p4p.arenabg.ch:1337 3 16 0 4 days
    udp://p4p.arenabg.com:1337 2 9 0 4 days
    udp://public.popcorn-tracker.org:6969 0 0 0 4 days
    udp://tracker.opentrackr.org:1337 0 0 0 4 days

    No comments yet.